Être notifié de l'ajout d'un lien.

Télécharger Tanguy, le retour

Qualité HDLight 1080p FRENCH
Tanguy, le retour
infos upload
synopsis
16 ans plus tard, Tanguy, qui a maintenant 44 ans, revient chez ses parents avec sa fille Zhu sous le bras car Meï Lin l'a quitté. Catastrophés de voir leur "tout-petit" dans cet état, Paul et Edith font tout pour lui redonner goût à la vie, sans réaliser que ce faisant, ils tressent la corde pour se pendre. Car Tanguy recommence à se sentir bien chez ses parents… NFO Show/hide text General Unique ID : 225447332176295876503221613454529800519 (0xA99B93A8A4E254354F188F5BFAAE2947) Complete name : G:tgyX2651080Light-Zone-Telechargement.Net.mkv Format : Matroska Format version : Version 4 File size : 1.38 GiB Duration : 1 h 33 min Overall bit rate : 2 110 kb/s Writing application : Lavf58.17.103 Writing library : Lavf58.17.103 ErrorDetectionType : Per level 1 Video ID : 1 Format : HEVC Format/Info : High Efficiency Video Coding Format profile : [email protected]@Main Codec ID : V_MPEGH/ISO/HEVC Duration : 1 h 33 min Bit rate : 1 684 kb/s Width : 1 920 pixels Height : 1 036 pixels Display aspect ratio : 1.85:1 Frame rate mode : Variable Original frame rate : 24.000 FPS Color space : YUV Chroma subsampling : 4:2:0 Bit depth : 8 bits Stream size : 1.10 GiB (80%) Writing library : x265 2.8+58-d17bc7714ed2:[Windows][GCC 8.2.1][32 bit] 8bit Encoding settings : cpuid=1049071 / frame-threads=4 / numa-pools=8,8 / wpp / no-pmode / no-pme / no-psnr / no-ssim / log-level=2 / input-csp=1 / input-res=1920x1036 / interlace=0 / total-frames=0 / level-idc=0 / high-tier=1 / uhd-bd=0 / ref=3 / no-allow-non-conformance / no-repeat-headers / annexb / no-aud / no-hrd / info / hash=0 / no-temporal-layers / open-gop / min-keyint=24 / keyint=250 / gop-lookahead=0 / bframes=4 / b-adapt=2 / b-pyramid / bframe-bias=0 / rc-lookahead=20 / lookahead-slices=6 / scenecut=40 / radl=0 / no-intra-refresh / ctu=64 / min-cu-size=8 / no-rect / no-amp / max-tu-size=32 / tu-inter-depth=1 / tu-intra-depth=1 / limit-tu=0 / rdoq-level=0 / dynamic-rd=0.00 / no-ssim-rd / signhide / no-tskip / nr-intra=0 / nr-inter=0 / no-constrained-intra / strong-intra-smoothing / max-merge=2 / limit-refs=3 / no-limit-modes / me=1 / subme=2 / merange=57 / temporal-mvp / weightp / no-weightb / no-analyze-src-pics / deblock=0:0 / sao / no-sao-non-deblock / rd=3 / no-early-skip / rskip / no-fast-intra / no-tskip-fast / no-cu-lossless / no-b-intra / no-splitrd-skip / rdpenalty=0 / psy-rd=2.00 / psy-rdoq=0.00 / no-rd-refine / no-lossless / cbqpoffs=0 / crqpoffs=0 / rc=crf / crf=22.0 / qcomp=0.60 / qpstep=4 / stats-write=0 / stats-read=0 / ipratio=1.40 / pbratio=1.30 / aq-mode=1 / aq-strength=1.00 / cutree / zone-count=0 / no-strict-cbr / qg-size=32 / no-rc-grain / qpmax=69 / qpmin=0 / no-const-vbv / sar=255 / sar-width / : / sar-height=9583:9600 / overscan=0 / videoformat=5 / range=0 / colorprim=2 / transfer=2 / colormatrix=2 / chromaloc=0 / display-window=0 / max-cll=0,0 / min-luma=0 / max-luma=255 / log2-max-poc-lsb=8 / vui-timing-info / vui-hrd-info / slices=1 / no-opt-qp-pps / no-opt-ref-list-length-pps / no-multi-pass-opt-rps / scenecut-bias=0.05 / no-opt-cu-delta-qp / no-aq-motion / no-hdr / no-hdr-opt / no-dhdr10-opt / no-idr-recovery-sei / analysis-reuse-level=5 / scale-factor=0 / refine-intra=0 / refine-inter=0 / refine-mv=0 / no-limit-sao / ctu-info=0 / no-lowpass-dct / refine-mv-type=0 / copy-pic=1 / max-ausize-factor=1.0 / no-dynamic-refine / no-single-sei Default : Yes Forced : No Audio ID : 2 Format : AC-3 Format/Info : Audio Coding 3 Commercial name : Dolby Digital Codec ID : A_AC3 Duration : 1 h 33 min Bit rate mode : Constant Bit rate : 384 kb/s Channel(s) : 6 channels Channel layout : L R C LFE Ls Rs Sampling rate : 48.0 kHz Frame rate : 31.250 FPS (1536 SPF) Bit depth : 16 bits Compression mode : Lossy Stream size : 257 MiB (18%) Title : DD5.1 - VFF Writing library : Lavc58.25.100 ac3 Language : French Service kind : Complete Main Default : Yes Forced : No Menu 00:00:00.000 : :Chapitre 1 00:11:23.666 : :Chapitre 2 00:19:19.832 : :Chapitre 3 00:30:33.039 : :Chapitre 4 00:40:01.414 : :Chapitre 5 00:50:06.580 : :Chapitre 6 00:59:56.788 : :Chapitre 7 01:09:42.871 : :Chapitre 8 01:19:16.621 : :Chapitre 9 01:29:38.203 : :Chapitre 10
11-08-2019, 12:30





Dites merci aux uploaders pour leurs travail, ça ne coûte rien et ça fait toujours plaisir